Supraphon a jejich Hi-Res alba

Hudba, která se Vám líbí a doporučili byste ji k poslechu

Re: Supraphon a jejich Hi-Res alba

Odeslatod PítrsPraha v 19 čer 2017 15:41

Oldear píše:...a co jsem zkoušel a testoval, tak to příliš nehrálo

No pokud ony testy a zkoušky porovnání CD vs hi-res probíhalo za přehrávání hi-resu z flešky strčené do věže, jak jsi psal, tak samozřejmě není divu... Hi-res má oproti CD přehrávanému na shodném systému zřetelně zvukově navrch.

Oldear píše:web je plný informací o prodeji Hi-res hudby v tom smyslu, že se většinou jedná o upscale právě z toho CD formátu. Stačí si to vygooglit.

Tvrzení, že více než polovina hudby prodávané jako hi-res je jen upsample (nikov upscale *headbang* )formátu CD, je holá lež. Prosím o odkaz na výsledek toho googlení, který tohle dokazuje.

Oldear píše:Vše vzniklo z toho, že mnou zakoupený FLAC od Supraphonu hraje hůře něž to první vydání CD z roku 1991.

Důvodů, proč to tobě zní hůře, může být více. Jak na straně vydavatele, tak na straně tvého řetězce.

VdH --> NA Sunrise
Vincent -->Denon DCD-2020--> Audioquest
Vincent -->Parasound Halo Integrated--> Vincent
Focal Electra 926
Lapp -->JBL LS 120P
PítrsPraha
 
Příspěvky: 1593
Registrován: 05 pro 2013 11:13

Re: Supraphon a jejich Hi-Res alba

Odeslatod WaVe_99 v 19 čer 2017 16:11

Oldear píše:WaVe_99


""""Oldear píše:
Vážení, trochu brzděte. Nejsou to nesmysly - viz níže uvedený obrázek a už vůbec to není přesně CD formát.

Ten je takto: 44100 × 16 × 2 = 1411200 bits per second, or 1411.2 kbit/s


Tady je screeShot Foobaru 2000, při přehrávání FLACu Olympic-Bigbít, zakoupeného na Supraphon on-line v roce 2015.

https://www.2i.cz/images/2017/06/17/ScreenShot001.png


Tak příjemný poslech.



Ale vždyť přeci víte, že FLAC je kompresní formát, bezztrátový... Ten Vámi spočítaný datový tok platí pro CD formát, ano. Nechápu, co nám tím chcete sdělit...""""


Vážený pane, pokud chcete reagovat věcně, ne jen si přisolit a trolit, musíte hledat souvislosti a číst předchozí reakce. Ten můj výpočet pro CDDA dle Red Book byl reakcí právě na Tebe, když už si to nepamatuješ, kde si tvrdil, že mnou udávané údaje FLAC od Supraphonu na tom screenShotu jsou právě parametry CD. Přesně si napsal toto:

"""Pise nesmysly, 44.1 a 750-900 kbps odpovida presne flacu v CD formatu."""

Tak ještě jednou CD má 1411 kbps a nikoliv 750-900 kbps. Džízas.

Pánové ještě jednou, poslouchejte si co chcete, je to Vaše volba, klidně ze Suproše, či HDtracks, nebo MP3 , je to jen Vaše volba a mě zcela ukradený. Já popsal jen moji dva roky starou zkušenost a jako doklad doložil screeShot. Co je na tom nepochopitelného. Kapišto.


Ale ja urcite nechci trolit, ani solit, ani nahodou. Jen jsem uvadel na pravou miru, ze FLAC vyrobeny z CD formatu ma datovy tok v tebou uvedene hodnote 750-900 kbps zcela bezne. Vubec to nemusi znamenat nejakou ztratu kvality (nevim nic o tvem retezci). Ja FLAC vyrobeny z CD od WAVU z CD sluchem nepoznam, CD prehravac uz nejakou dobu nemam... Jsou mozna lide, kteri to poznaji, nebo maji v retezci neco, co muze zpusobovat nejakou degradaci pri prehravani FLACu... O tom se hadat nemuzu, ja takovou zkusenost nemam a ani si to vzhledem k nizke narocnosti pri "live" dekomprimovani flacu neumim predstavit :-)
WaVe_99
 
Příspěvky: 119
Registrován: 18 lis 2010 13:56

Re: Supraphon a jejich Hi-Res alba

Odeslatod TJK v 19 čer 2017 18:01

No vidím že se to tady jako obvykle zvrhlo do polemiky co je z analog pásů, co z digitálu, co je AAA, co je AAD... Každopádně... bavíme se o Hi-res albech Supraphonu. Kuře v hodinkách v Hi-Res zní nejlépe (podobně jako 1.press a trezor z roku 1990) z digi kopíí které vlastním. Mám dokonce v digi kopii polskou verzi alba která je nahrána z prvního pressu alba. DR velmi podobné jako u HiRes verze. Co se týče tohohle asi nemám důvod nevěřit, že by HiRes verzi brali z něčeho jiného než z master pásů. Chystám se koupit Meditaci a Šípkovou růženku... Pak poreferuju jak jsou na tom tyhle alba.
Pro-ject 2Xperience SB DC, Ortofon Silver, Phono Box S, Audioquest Dragonfly 1.2, Denon PMA-655r, Mission M33i, (AKG K702)
TJK
 
Příspěvky: 310
Registrován: 09 úno 2013 10:23
Bydliště: OV-Zábřeh

Re: Supraphon a jejich Hi-Res alba

Odeslatod PavelDosko v 19 čer 2017 19:14

Meditace v Hi-Res ze Supraphonline je vyborna, doporucuju
PMA PA4 Big Brother, premp SPaudio P1, DAC SPaudio D1, Aurum Cantus V8F, filtrace Noble Audio, kabely SPaudio SC1,LC1,PC1, Pangea AC9, iFi iUSBPower,iFi iPurifier 2, Fidelizer Pro, Foobar
PavelDosko
 
Příspěvky: 170
Registrován: 08 úno 2011 14:06
Bydliště: Olomouc

Re: Supraphon a jejich Hi-Res alba

Odeslatod TJK v 19 čer 2017 20:29

Doufám že postupně budou vydávat třeba Město Er, Odysseu (od Ulbrychových), Micro-Magic-Circus, Pozorovatelnu atd. Taková alba (beatová), která si tu pozornost zaslouží.
Pro-ject 2Xperience SB DC, Ortofon Silver, Phono Box S, Audioquest Dragonfly 1.2, Denon PMA-655r, Mission M33i, (AKG K702)
TJK
 
Příspěvky: 310
Registrován: 09 úno 2013 10:23
Bydliště: OV-Zábřeh

Re: Supraphon a jejich Hi-Res alba

Odeslatod jirie v 19 čer 2017 21:43

PavelDosko píše:Meditace v Hi-Res ze Supraphonline je vyborna, doporucuju


Díky za Tvé info. Mohl bys uvést i DR jednotlivých skladeb? Jen pro srovnání s CD vydáním.
Uživatelský avatar
jirie
 
Příspěvky: 745
Registrován: 03 pro 2008 12:35

Re: Supraphon a jejich Hi-Res alba

Odeslatod Jirka33 v 20 čer 2017 11:07

Nebo to rovnou uploadni, a my si to zkontrolujem sami. :lol:
Uživatelský avatar
Jirka33
 
Příspěvky: 38
Registrován: 04 kvě 2017 19:18

Re: Supraphon a jejich Hi-Res alba

Odeslatod Jirka33 v 20 čer 2017 11:35

Žádná sláva. :?

foobar2000 1.3.8 / Dynamic Range Meter 1.1.1
log date: 2017-06-20 11:29:42

--------------------------------------------------------------------------------
Analyzed: BLUE EFFECT / Meditace
--------------------------------------------------------------------------------

DR Peak RMS Duration Track
--------------------------------------------------------------------------------
DR7 -0.25 dB -9.37 dB 4:04 ?-1. Paměť lásky
DR8 -0.10 dB -10.22 dB 4:07 ?-2. Blue Effect Street
DR7 -0.19 dB -11.38 dB 4:26 ?-3. Fénix
DR7 -0.23 dB -9.00 dB 2:29 ?-4. Stroj na nic
DR9 -1.49 dB -13.78 dB 1:50 ?-5. Sluneční hrob
DR8 -0.19 dB -9.43 dB 4:01 ?-6. Little Girl
DR8 -0.16 dB -9.63 dB 3:12 ?-7. Deserted Alley
DR7 -0.20 dB -10.25 dB 8:04 ?-8. Blues About Stone
DR7 -0.12 dB -9.11 dB 3:59 ?-9. Rainy Day
DR7 -0.18 dB -9.34 dB 3:29 ?-10. Where Is My Star
--------------------------------------------------------------------------------

Number of tracks: 10
Official DR value: DR7

Samplerate: 44100 Hz
Channels: 2
Bits per sample: 16
Codec: FLAC
================================================================================
Uživatelský avatar
Jirka33
 
Příspěvky: 38
Registrován: 04 kvě 2017 19:18

Re: Supraphon a jejich Hi-Res alba

Odeslatod vonvichousch v 20 čer 2017 11:43

Jirka33 píše:Žádná sláva. :?

foobar2000 1.3.8 / Dynamic Range Meter 1.1.1
log date: 2017-06-20 11:29:42

-
Number of tracks: 10
Official DR value: DR7

Samplerate: 44100 Hz
Channels: 2
Bits per sample: 16

Codec: FLAC
================================================================================


Tohle ale přeci není žádný Hi-Res, ale obyčejný CD.
Thorens TD-280Mk2 s Pro-Ject Pick-it MC 1H ,Pro-Ject Tube BOX II,Advance Acoustic X-i60,Pro-Ject CD BOX,Tuner BOX, Q-acoustics 2020i
Uživatelský avatar
vonvichousch
 
Příspěvky: 367
Registrován: 08 dub 2010 10:07
Bydliště: Opava

Re: Supraphon a jejich Hi-Res alba

Odeslatod Jirka33 v 20 čer 2017 12:32

Né vážně? To bych bez tebe nevěděl, jistě že je to normální CD, to abyste mohli porovnat s Hi-Res jestli posle DR chytráci.
Uživatelský avatar
Jirka33
 
Příspěvky: 38
Registrován: 04 kvě 2017 19:18

Re: Supraphon a jejich Hi-Res alba

Odeslatod PavelDosko v 20 čer 2017 15:16

foobar2000 1.3.13 / Dynamic Range Meter 1.1.1
log date: 2017-06-20 15:13:22

--------------------------------------------------------------------------------
Analyzed: Blue Effect / Meditace
--------------------------------------------------------------------------------

DR Peak RMS Duration Track
--------------------------------------------------------------------------------
DR10 0.00 dB -15.12 dB 4:33 01-Pamet lasky
DR11 0.00 dB -13.97 dB 4:10 02-Blue Effect Street
DR11 0.00 dB -17.28 dB 4:32 03-Fenix
DR11 0.00 dB -13.01 dB 2:30 04-Stroj na nic
DR12 0.00 dB -16.57 dB 1:52 05-Slunecny hrob
DR9 0.00 dB -10.54 dB 3:58 06-Little Girl (Devcatko)
DR9 0.00 dB -11.69 dB 3:11 07-Deserted Alley (Osamela ulice)
DR10 0.00 dB -14.64 dB 8:08 08-Blues About Stone (Kamenne blues)
DR9 0.00 dB -11.11 dB 4:04 09-Rainy Day (Destivy den)
DR10 0.00 dB -13.15 dB 3:34 10-Where Is My Star (Kde je ma hvezda)
--------------------------------------------------------------------------------

Number of tracks: 10
Official DR value: DR10

Samplerate: 192000 Hz
Channels: 2
Bits per sample: 24
Bitrate: 9216 kbps
Codec: PCM
================================================================================
PMA PA4 Big Brother, premp SPaudio P1, DAC SPaudio D1, Aurum Cantus V8F, filtrace Noble Audio, kabely SPaudio SC1,LC1,PC1, Pangea AC9, iFi iUSBPower,iFi iPurifier 2, Fidelizer Pro, Foobar
PavelDosko
 
Příspěvky: 170
Registrován: 08 úno 2011 14:06
Bydliště: Olomouc

Re: Supraphon a jejich Hi-Res alba

Odeslatod PavelDosko v 20 čer 2017 15:22

a pro zajímavost i diskutovaná Hana Hegerová Lásko prokletá Hi-Res Supraphon
foobar2000 1.3.13 / Dynamic Range Meter 1.1.1
log date: 2017-06-20 13:52:33

--------------------------------------------------------------------------------
Analyzed: Hana Hegerová / Lásko prokletá
--------------------------------------------------------------------------------

DR Peak RMS Duration Track
--------------------------------------------------------------------------------
DR12 0.00 dB -15.21 dB 2:31 01-02 - Kdyz nekdo z vas (Fast ein Liebeslied)
DR12 0.00 dB -15.61 dB 3:38 02-03 - Pojd dal
DR13 0.00 dB -16.14 dB 3:37 03-04 - Cerna Jessie
DR13 0.00 dB -16.32 dB 3:46 04-05 - Hra
DR14 0.00 dB -16.89 dB 2:39 05-06 - Starozitnosti (Au magasin dantiquites)
DR15 0.00 dB -18.40 dB 4:45 06-07 - Dnes naposled
DR13 0.00 dB -16.89 dB 3:55 07-08 - Muj mily malo mily je
DR12 0.00 dB -14.57 dB 2:58 08-09 - Skripky
DR13 0.00 dB -16.99 dB 4:09 09-10 - Ja rada vzpominam
DR13 0.00 dB -16.96 dB 4:22 10-11 - Milord
--------------------------------------------------------------------------------

Number of tracks: 10
Official DR value: DR13

Samplerate: 192000 Hz
Channels: 2
Bits per sample: 24
Bitrate: 9216 kbps
Codec: PCM
================================================================================
PMA PA4 Big Brother, premp SPaudio P1, DAC SPaudio D1, Aurum Cantus V8F, filtrace Noble Audio, kabely SPaudio SC1,LC1,PC1, Pangea AC9, iFi iUSBPower,iFi iPurifier 2, Fidelizer Pro, Foobar
PavelDosko
 
Příspěvky: 170
Registrován: 08 úno 2011 14:06
Bydliště: Olomouc

Re: Supraphon a jejich Hi-Res alba

Odeslatod TJK v 20 čer 2017 18:22

A tohle je výpis z Kuřete v hodinkách
PCM je konvertováno do flacu


foobar2000 1.3.15 / Dynamic Range Meter 1.1.1
log date: 2017-06-15 21:35:21

--------------------------------------------------------------------------------
Analyzed: Flamengo / Kuře V Hodinkách (Hi-Res 24bit/192kHz)
--------------------------------------------------------------------------------

DR Peak RMS Duration Track
--------------------------------------------------------------------------------
DR9 0.00 dB -11.25 dB 2:28 01-Kuře V Hodinkách (Introdukce)
DR11 0.00 dB -13.06 dB 4:01 02-Rám Příštích Obrazů
DR11 0.00 dB -12.04 dB 2:56 03-Jenom Láska Ví Kam
DR11 0.00 dB -13.09 dB 4:45 04-Já A Dým
DR10 0.00 dB -12.05 dB 4:23 05-Chvíle Chvil
DR10 0.00 dB -12.99 dB 6:34 06-Pár Století
DR11 0.00 dB -12.31 dB 4:33 07-Doky, Vlaky, Hlad A Boty
DR9 0.00 dB -11.06 dB 3:17 08-Stále Dál
DR10 0.00 dB -11.76 dB 5:36 09-Kuře V Hodinkách
--------------------------------------------------------------------------------

Number of tracks: 9
Official DR value: DR10

Samplerate: 192000 Hz
Channels: 2
Bits per sample: 24
Bitrate: 5360 kbps
Codec: FLAC
================================================================================
Pro-ject 2Xperience SB DC, Ortofon Silver, Phono Box S, Audioquest Dragonfly 1.2, Denon PMA-655r, Mission M33i, (AKG K702)
TJK
 
Příspěvky: 310
Registrován: 09 úno 2013 10:23
Bydliště: OV-Zábřeh

Re: Supraphon a jejich Hi-Res alba

Odeslatod terahera v 20 čer 2017 23:58

:) A ted Jirko33 mluv, podle me si pletes jabka so hruskama
BC Acoustique EX362D,PJ the Classic,Sumiko Blue point 2,PJ Phonobox RS,Audioqest Dragonfly Red,Zotac mini PC,Audioquest Gibraltar+NRG 1000,PJ Connect it SI+Van Den Hul D102,HGA DNA,AC Melody 103
terahera
 
Příspěvky: 399
Registrován: 17 dub 2016 23:45
Bydliště: Valašské Meziříčí

Re: Supraphon a jejich Hi-Res alba

Odeslatod Jirka33 v 21 čer 2017 02:31

terahera: Nic si nepletu, i kdyz nevim o cem mluvis, a je mi to docela jedno.
Uživatelský avatar
Jirka33
 
Příspěvky: 38
Registrován: 04 kvě 2017 19:18

Re: Supraphon a jejich Hi-Res alba

Odeslatod PavelDosko v 21 čer 2017 08:23

p.s. samotne DR dle mne nedela vybornou nahravku, na druhou stranu mizerne DR zprzni i relativne povedenou nahravku
PMA PA4 Big Brother, premp SPaudio P1, DAC SPaudio D1, Aurum Cantus V8F, filtrace Noble Audio, kabely SPaudio SC1,LC1,PC1, Pangea AC9, iFi iUSBPower,iFi iPurifier 2, Fidelizer Pro, Foobar
PavelDosko
 
Příspěvky: 170
Registrován: 08 úno 2011 14:06
Bydliště: Olomouc

Re: Supraphon a jejich Hi-Res alba

Odeslatod lachim v 21 čer 2017 09:35

terahera + jirka33

vykašlete se, prosím, na nekonečné spory.
pište o hifi!
nač zase kazit další vlákno blábolením!
díky
plasma panasonic,denon avr2908,denon dvd1920, xavian tronfa +mia + scena.
el.filtr, repro kabely paolo, audioquest hdmi3, el.supra
Uživatelský avatar
lachim
 
Příspěvky: 1899
Registrován: 17 dub 2008 18:43

Předchozí

Zpět na Doporučené nahrávky

Kdo je online

Uživatelé procházející toto fórum: Žádní registrovaní uživatelé a 4 návštevníků